#TITLE:Winter;
#SUBTITLE:(Full Version);
#ARTIST:Banya;
#TITLETRANSLIT:;
#SUBTITLETRANSLIT:;
#ARTISTTRANSLIT:;
#CREDIT:;
#BANNER:winter-bn.png;
#BACKGROUND:winter-bg.png;
#LYRICSPATH:;
#CDTITLE:!moogycdtitle.png;
#MUSIC:Winter (Full Version).mp3;
#OFFSET:-0.310;
#SAMPLESTART:70.210;
#SAMPLELENGTH:12.000;
#SELECTABLE:YES;
#BPMS:0.000=168.000;
#STOPS:;
#BGCHANGES:;
// cache tags:
#FIRSTBEAT:0.000;
#LASTBEAT:489.000;
#SONGFILENAME:Songs/Music V.I.P ^_^/Winter v4/Winter.sm;
#HASMUSIC:1;
#HASBANNER:1;
#MUSICLENGTH:179.887;
// end cache tags

//---------------dance-single - ----------------
#NOTES:
     dance-single:
     :
     Challenge:
     13:
     1.000,1.000,1.000,0.000,1.000,1479.000,634.000,0.000,0.000,135.000:  // measure 1
1000
0000
0010
0001
1000
0100
0010
0001
,  // measure 2
1000
0000
0010
0001
0010
0100
1000
0100
1000
0100
0010
0001
0010
0100
1000
0100
,  // measure 3
0011
1000
0101
1010
0101
1001
0101
0110
,  // measure 4
1101
0010
0100
1000
0101
1000
0110
1000
0101
1000
0011
1000
0101
1000
0110
1000
,  // measure 5
0111
1000
0010
0100
1001
0100
0011
0100
1001
0100
0011
0100
1001
0100
0011
0100
,  // measure 6
1011
0111
1110
1101
,  // measure 7
1011
0000
1110
0000
0111
0100
1101
0100
,  // measure 8
0111
1000
0101
0110
0011
0110
1001
0110
,  // measure 9
0111
1000
0100
0010
0101
1000
0110
1000
0101
1000
0011
1000
0101
1000
0110
1000
,  // measure 10
0111
1000
0010
0100
1001
0100
0011
0100
1001
0100
0011
0100
1001
0100
0011
0100
,  // measure 11
1011
0111
1101
0111
,  // measure 12
1101
0000
1110
0000
0111
0010
1011
0010
,  // measure 13
1110
1000
0101
0011
0101
1010
0101
0011
,  // measure 14
0111
1000
0100
0010
0101
1000
0110
1000
0101
1000
0011
1000
0101
1000
0110
1000
,  // measure 15
0111
1000
0010
0100
1001
0100
0011
0100
1001
0100
0011
0100
1001
0100
0011
0100
,  // measure 16
1011
0111
1001
1011
,  // measure 17
1001
1101
1001
1011
,  // measure 18
0110
0000
1110
0000
0110
0100
0111
0100
,  // measure 19
1110
0101
0111
1011
1101
1110
0111
1101
,  // measure 20
1111
0101
0111
1110
1110
0111
1101
0111
,  // measure 21
1111
1010
1110
1101
1011
0111
1110
1011
,  // measure 22
1111
1010
1110
0111
0111
1110
1011
1110
,  // measure 23
1111
1010
1110
0111
1101
0111
1101
1110
,  // measure 24
1111
0000
1000
0001
1000
0000
0011
1000
0101
0000
1010
0000
0011
0000
0101
0000
,  // measure 25
1101
0110
1110
0101
0111
1001
1101
1010
,  // measure 26
1111
0000
1000
0001
1100
0001
1010
0100
0011
0000
0110
0000
1100
0000
0101
0000
,  // measure 27
1110
0101
1101
0110
0111
1001
1110
0101
,  // measure 28
1111
0000
1000
0010
1001
0010
1100
0001
1100
0000
0110
0000
0101
0000
0011
0000
,  // measure 29
1101
1010
0111
1010
1110
0011
1011
0110
,  // measure 30
1111
0000
1000
0001
1100
0010
0101
0010
1100
0000
1010
0000
0101
0000
0110
0000
,  // measure 31
1011
1100
1110
0011
0111
1100
1011
0110
,  // measure 32
1001
0010
0100
1000
0101
0010
0001
0010
1100
0010
0001
0010
0101
1000
0100
1000
,  // measure 33
0101
0010
0001
0010
0101
1000
0001
0100
1010
0100
1001
0100
1010
0001
1100
0010
,  // measure 34
0101
0000
1000
0010
0101
0000
0100
1000
0011
0100
0010
0100
1001
0100
0010
0001
,  // measure 35
1010
0001
0010
0100
1001
0100
1000
0100
1010
0001
0010
0100
1010
0001
0010
0100
,  // measure 36
0011
1000
0001
0100
1010
0001
0100
0010
1001
0100
0010
0001
0110
1000
0001
0100
,  // measure 37
0011
0000
1000
0100
0011
0000
1000
0001
1100
0010
1000
0010
1100
0001
0100
0010
,  // measure 38
1001
0100
0001
0100
0011
0100
0010
0100
1001
0010
0001
0100
1001
0010
0001
1000
,  // measure 39
0101
1000
0100
0010
0101
1000
0010
0100
1001
0010
0100
1000
0101
0010
1000
0001
,  // measure 40
1100
0000
0001
0010
1100
0000
0010
0100
0011
1000
0010
0100
1001
0010
0100
0001
,  // measure 41
1100
0010
0100
0010
1100
0001
1000
0010
0101
0010
1000
0001
1100
0010
0100
0010
,  // measure 42
1101
0010
0100
1000
0111
1000
0100
0010
1101
0010
0100
1000
0111
1000
0001
1000
,  // measure 43
0111
1000
0100
0001
0110
1000
0100
0001
0110
1000
0010
0100
1001
0010
0100
0010
,  // measure 44
1100
0001
0100
1000
0110
0001
0100
0010
1100
0001
0100
0001
1010
0001
1000
0010
,  // measure 45
0101
1000
0010
0100
0011
1000
0001
0010
1100
0001
0010
1000
0110
0001
0010
0100
,  // measure 46
1001
0000
1000
0100
0011
0000
0001
0100
1011
0000
0110
0001
1110
0000
0011
0100
,  // measure 47
1011
0100
0001
0100
0010
1000
0100
1000
0100
0010
0100
0001
0010
0100
1000
0001
,  // measure 48
1010
0100
1000
0100
0010
0001
1010
0100
1000
0100
0010
0001
1010
0100
1000
0100
0010
0001
1010
0100
1000
0100
0010
0001
,  // measure 49
1010
0100
0010
1000
0011
0100
0010
0100
0011
1000
0010
0100
1001
0010
1000
0100
,  // measure 50
1010
0100
1000
0100
0010
0001
1010
0100
1000
0100
0010
0001
1010
0100
1000
0100
0010
0001
1010
0100
1000
0100
0010
0001
,  // measure 51
1010
0100
0001
1000
0110
0001
0010
1000
0101
1000
0100
1000
0011
0100
1000
0100
,  // measure 52
1010
0100
1000
0100
0010
0001
1010
0100
1000
0100
0010
0001
1010
0100
1000
0100
0010
0001
1010
0100
1000
0100
0010
0001
,  // measure 53
1010
0100
0010
0100
0101
0010
0100
0010
1010
0100
0010
0100
0101
0010
0001
0010
,  // measure 54
1010
0100
0010
0001
0010
0100
1010
0100
0010
0001
0010
0100
1010
0100
0010
0001
0010
0100
1010
0100
0010
0001
0010
0100
,  // measure 55
1011
0100
0010
1001
0010
0100
1011
0100
0010
1001
0010
0100
1011
0100
0010
1001
0010
0100
1011
0100
0010
1001
0010
0100
,  // measure 56
1011
0100
0010
1100
0001
0010
0101
0010
0100
1010
0001
0100
1010
0001
0010
0101
1000
0100
1010
0001
1000
0011
0100
0001
,  // measure 57
1110
0000
1000
0000
1101
0000
1000
0000
1000
0001
1000
0001
1000
0001
1000
0001
,  // measure 58
1100
0000
0000
0000
0000
0000
0101
0000
0000
0110
1001
0110
0000
0000
0000
0000
0000
0000
0011
0000
0000
0110
0000
0000
,  // measure 59
1010
0101
1010
0101
,  // measure 60
0110
0000
1010
0001
0110
0000
0011
0000
0110
0000
0000
0000
1001
0000
1000
0000
,  // measure 61
1001
0110
0000
1001
,  // measure 62
0110
0000
0101
0110
1010
0000
1010
0110
,  // measure 63
0101
0000
1001
0011
1100
0000
0110
0101
,  // measure 64
0011
0000
1010
0110
0011
0000
1010
0110
,  // measure 65
1001
0000
0101
0110
1100
0000
1001
0011
,  // measure 66
1010
0000
0000
0000
1001
0011
0110
1100
,  // measure 67
1010
0000
0000
0000
0101
0110
1010
0110
,  // measure 68
1001
0000
0000
0000
0110
0011
0110
1100
,  // measure 69
1010
0000
0000
0000
0101
0001
0101
1010
,  // measure 70
0110
0010
0011
0000
0000
0000
0011
0000
,  // measure 71
1010
0100
1001
0000
0110
0000
0101
0000
1010
0100
0011
0000
0110
0000
1010
0000
,  // measure 72
1100
0000
0011
0000
1100
0010
0001
0010
1100
0011
1100
0011
1100
0000
0000
0000
,  // measure 73
1001
0100
0010
0100
0010
0100
0010
0100
0010
0100
0010
0100
0010
0100
0010
0100
,  // measure 74
1010
0000
0000
0000
0000
0000
0101
0000
0000
0110
1001
0110
0000
0000
0000
0000
0000
0000
1010
0000
0000
0110
0000
0000
,  // measure 75
1001
0011
0000
0110
,  // measure 76
1001
0100
0011
0000
0110
0000
1010
0000
1100
0000
0000
0000
0101
0000
0000
0000
,  // measure 77
1010
0110
0000
1001
,  // measure 78
0110
0001
1010
0000
0110
0000
0101
0000
0011
0000
0000
0000
1010
0000
0010
0000
,  // measure 79
0110
1001
0000
0101
,  // measure 80
1010
0000
0101
0110
1010
0000
1100
0110
,  // measure 81
1001
0000
0011
0110
1010
0000
1001
0011
,  // measure 82
0110
0000
1001
0101
0011
0000
1010
0110
,  // measure 83
1100
0000
0000
0000
0000
0000
0011
0110
,  // measure 84
1100
0110
0011
0101
0110
1010
1100
0110
,  // measure 85
1001
0000
0000
0000
0110
0000
1001
0000
0000
0000
0100
0010
1001
0100
1010
0001
,  // measure 86
0110
1010
0101
0110
1010
0101
0011
0110
,  // measure 87
1010
0000
0000
0000
0101
0000
0000
0000
0000
0000
1000
0001
0110
1000
0011
0100
,  // measure 88
1011
0000
0000
0000
0000
0000
1100
0000
0000
0110
0000
0000
1110
0001
0100
0001
0100
0001
0100
0001
0100
0001
0100
0001
,  // measure 89
1110
0001
1000
0001
1000
0001
1000
0001
1000
0001
1000
0001
1000
0001
1000
0001
,  // measure 90
1100
0000
0010
0100
1010
0000
1010
0001
0110
0000
0110
0000
0011
0000
0110
0000
,  // measure 91
1011
0110
1101
0011
0111
1100
1110
0110
,  // measure 92
1111
0000
1000
0010
1100
0010
0101
0010
1001
0000
0101
0000
0110
0000
1010
0000
,  // measure 93
1101
0110
1110
1001
1011
0110
1101
0011
,  // measure 94
1111
0000
1000
0001
1100
0010
0101
0010
1001
0000
1010
0000
0101
0000
0110
0000
,  // measure 95
1011
0011
1110
1100
0111
0110
1101
1100
,  // measure 96
1111
0000
0001
1000
0011
0100
1001
0010
0101
0000
1100
0000
0110
0000
0011
0000
,  // measure 97
1110
0011
0111
1100
1011
0110
1101
1010
,  // measure 98
0110
0001
1000
0010
1100
0001
0010
0100
1001
0100
0010
0001
1100
0010
0100
0001
,  // measure 99
0110
1000
0100
0010
0101
1000
0001
0010
1100
0010
1100
0001
1100
0010
0101
0010
,  // measure 100
1100
0000
0001
0010
1100
0000
0001
0010
1100
0010
0100
1000
0011
0100
0010
0100
,  // measure 101
1010
0100
0001
0100
0011
0100
0010
0100
0011
1000
0001
1000
0011
0100
0010
0001
,  // measure 102
1010
0100
1000
0100
0011
1000
0010
0100
0011
1000
0001
0100
1010
0100
1000
0010
,  // measure 103
0101
0000
1000
0010
0101
0000
1000
0001
1100
0010
0100
0010
0101
1000
0001
1000
,  // measure 104
0011
0100
0010
0001
1010
0100
0001
0010
1100
0001
0010
0100
1001
0010
0100
1000
,  // measure 105
0110
0001
0100
0010
1100
0001
0010
0100
1010
0001
1000
0100
0011
0100
0010
1000
,  // measure 106
0101
0000
1000
0001
0110
0000
1000
0010
1100
0001
1000
0010
1100
0001
0010
0100
,  // measure 107
1010
0100
0010
0001
1100
0001
1000
0001
1100
0010
0100
0010
1001
0010
0001
0100
,  // measure 108
1011
0100
0010
0001
1110
0001
0100
1000
0111
1000
0010
0001
1110
0001
0010
0100
,  // measure 109
1011
0100
0010
1000
0011
0100
0010
0001
1010
0100
1000
0001
1010
0001
0100
0010
,  // measure 110
0101
1000
0100
0010
1001
0010
0100
1000
0011
1000
0001
1000
0011
0100
0001
0100
,  // measure 111
1001
0010
0001
0100
1010
0001
0100
0010
1100
0001
0100
1000
0110
0001
0100
0010
,  // measure 112
1001
0000
1000
0100
0011
0000
1000
0010
1101
0000
1100
0010
1101
0000
0110
1000
,  // measure 113
0111
1000
0001
1000
0010
0100
0001
1000
0010
0100
0010
0001
0010
0100
1000
0010
,  // measure 114
0101
0010
0100
1000
0100
0010
0101
0010
0100
1000
0100
0010
0101
0010
0100
1000
0100
0010
0101
0010
0100
1000
0100
0010
,  // measure 115
0101
0010
1000
0100
1001
0010
1000
0010
0101
1000
0001
1000
0110
0001
0100
1000
,  // measure 116
0101
0010
0100
1000
0100
0010
0101
0010
0100
1000
0100
0010
0101
0010
0100
1000
0100
0010
0101
0010
0100
1000
0100
0010
,  // measure 117
0101
1000
0001
0100
1010
0100
0001
1000
0110
0001
1000
0100
0011
1000
0100
0010
,  // measure 118
0101
0010
0100
1000
0100
0010
0101
0010
0100
1000
0100
0010
0101
0010
0100
1000
0100
0010
0101
0010
0100
1000
0100
0010
,  // measure 119
0101
0010
0100
0010
1010
0100
0001
0100
0110
0001
1000
0001
0011
0100
0010
0100
,  // measure 120
0101
0010
0100
1001
0100
0010
0101
0010
0100
1001
0100
0010
0101
0010
0100
1001
0100
0010
0101
0010
0100
1001
0100
0010
,  // measure 121
0101
0010
0100
1000
0100
0010
1101
0010
0100
1000
0100
0010
1101
0010
0100
1000
0100
0010
1101
0010
0100
1000
0100
0010
,  // measure 122
0101
1000
0010
1100
0001
0100
0011
1000
0100
1010
0001
0010
0101
1000
0001
1100
0010
1000
0101
0010
1000
0110
0001
0100
,  // measure 123
1010
1111
0000
0000
;
